Home / Night at the Museum: Secret of the Tomb - Notte al museo il se

Night at the Museum: Secret of the Tomb - Notte al museo il se

date added 1 year ago   
post views 235 views   
torrent id ID: 36017

Torrent Description: Download Night at the Museum: Secret of the Tomb - Notte al museo il se Movie Torrent in HD Quality. Night at the Museum: Secret of the Tomb - Notte al museo il se DVD and PDVD. If you facing any problem Downloading Night at the Museum: Secret of the Tomb - Notte al museo il se Movie Torrent. Scroll Down to Get Download Link.

  • Category » Movies
  • Type » Divx/Xvid
  • Language » English
  • Total size » 1.66 GB
  • Uploaded By » robbyrs-robbyrs
Night at the Museum: Secret of the Tomb - Notte al museo il segreto del Faraone (2014 BRrip.XviD - Italian English.Ac3.5.1.Sub.Ita.Eng.MIRCrew





NO FOUND ONLY ORIGINAL RELEASE

Notte al museo il segreto del Faraone - Night at the Museum: Secret of the Tomb (2014)








Titolo originale Night at the Museum: Secret of the Tomb
Paese di produzione USA
Anno 2014
Durata 98 min
Genere commedia, fantastico, avventura
Regia Shawn Levy
Sceneggiatura Robert Ben Garant, David Guion, Michael Handelman, Thomas Lennon
Produttore Shawn Levy, Chris Columbus, Michael Barnathan
Casa di produzione 21 Laps Entertainment 1492 Pictures
Distribuzione (Italia) 20th Century Fox
Fotografia Guillermo Navarro
Musiche Alan Silvestri





Ben Stiller: Larry Daley/Lè
Robin Williams: Theodore Roosevelt/Garuda
Dan Stevens: Lancillotto
Rebel Wilson: Tilly
Skyler Gisondo: Nicky Daley
Ben Kingsley: Merenkahre, padre di Ahkmenrah
Anjali Jay: Shepseheret, madre di Ahkmenrah
Owen Wilson: Jedediah
Ricky Gervais: Dr. McPhee
Steve Coogan: Ottaviano
Rachael Harris: Madeline Phelps
Patrick Gallagher: Attila
Rami Malek: Ahkmenrah
Mizuo Peck: Sacagawea
Dick Van Dyke: Cecil Fredericks
Bill Cobbs: Reginald
Mickey Rooney: Gus
Brennan Elliott: Robert T. Frederick
Hugh Jackman: se stesso
Alice Eve: se stessa


.

Larry Daley (Ben Stiller) in questa nuova avventura è alle prese con la strana muffa corrosiva che sta ricoprendo gradualmente la Tavola di Ahkmenrah (Rami Malek); il coraggioso guardiano dovrà allora recarsi al British Museum di Londra per venire a capo del problema e permettere alla magia notturna di continuare a fluire. Una volta arrivati dovranno recarsi nell'ala egizia del museo e risvegliare il Faraone Merenkahre.......



At the Museum of Natural History, there's new exhibit being unveiled. Larry Daley who manages the night exhibit because the exhibits come to life because of the Tablet of Ahkmenrah, is in charge of the presentation. But when the exhibits go wild, Larry finds himself in trouble. He learns that the Tablet is corroding so he does some research and learns that Cecil, the former museum guard was at the site when the Tablet was discovered.....














[spoiler]
General
Complete name : Notte al museo il segreto del Faraone (2014).ita.eng.sub.ita.eng.MIRCrew\Notte al museo il segreto del Faraone (2014).ita.eng.sub.ita.eng.MIRCrew.avi
Format : AVI
Format/Info : Audio Video Interleave
File size : 1.65 GiB
Duration : 1h 37mn
Overall bit rate : 2 409 Kbps
Movie name : MIRCrew by robbyrs
Writing application : VirtualDubMod 1.5.10.2 (build 2540/release)
Writing library : VirtualDubMod build 2540/release

Video
ID : 0
Format : MPEG-4 Visual
Format profile : [email protected]
Format settings, BVOP : No
Format settings, QPel : No
Format settings, GMC : No warppoints
Format settings, Matrix : Default (H.263)
Codec ID : XVID
Codec ID/Hint : XviD
Duration : 1h 37mn
Bit rate : 1 499 Kbps
Width : 720 pixels
Height : 386 pixels
Display aspect ratio : 1.853
Frame rate : 23.976 fps
Color space : YUV
Chroma subsampling : 4:2:0
Bit depth : 8 bits
Scan type : Progressive
Compression mode : Lossy
Bits/(Pixel*Frame) : 0.225
Stream size : 1.02 GiB (62%)
Writing library : XviD 64

Audio #1
ID : 1
Format : AC-3
Format/Info : Audio Coding 3
Mode extension : CM (complete main)
Codec ID : 2000
Duration : 1h 37mn
Bit rate mode : Constant
Bit rate : 448 Kbps
Channel(s) : 6 channels
Channel positions : Front: L C R, Side: L R, LFE
Sampling rate : 48.0 KHz
Bit depth : 16 bits
Compression mode : Lossy
Stream size : 313 MiB (19%)
Alignment : Split accross interleaves
Interleave, duration : 42 ms (1.00 video frame)
Interleave, preload duration : 500 ms

Audio #2
ID : 2
Format : AC-3
Format/Info : Audio Coding 3
Mode extension : CM (complete main)
Codec ID : 2000
Duration : 1h 37mn
Bit rate mode : Constant
Bit rate : 448 Kbps
Channel(s) : 6 channels
Channel positions : Front: L C R, Side: L R, LFE
Sampling rate : 48.0 KHz
Bit depth : 16 bits
Compression mode : Lossy
Stream size : 313 MiB (19%)
Alignment : Split accross interleaves
Interleave, duration : 42 ms (1.00 video frame)
Interleave, preload duration : 500 ms


[/spoiler]



DOWNLOAD LINK

Night at the Museum: Secret of the Tomb - Notte al museo il se Night at the Museum: Secret of the Tomb - Notte al museo il se

Download Night at the Museum: Secret of the Tomb - Notte al museo il se Full Movie Torrent HD Quality

Torrent Download Night at the Museum: Secret of the Tomb - Notte al museo il se



People also Search for:

  • • Download Night at the Museum: Secret of the Tomb - Notte al museo il se Torrent 1080p
  • • Torrent Night at the Museum: Secret of the Tomb - Notte al museo il se Download DVDRip
  • • Download Night at the Museum: Secret of the Tomb - Notte al museo il se Torrent 720p
  • • Night at the Museum: Secret of the Tomb - Notte al museo il se High Resolution Torrent Result
  • • Download Night at the Museum: Secret of the Tomb - Notte al museo il se Bluray Torrent
  • • Xvid Torrent Night at the Museum: Secret of the Tomb - Notte al museo il se Download
  • • Download Night at the Museum: Secret of the Tomb - Notte al museo il se Torrent Full HD
  • • Torrent Night at the Museum: Secret of the Tomb - Notte al museo il se HDRip Download
  • • Download Night at the Museum: Secret of the Tomb - Notte al museo il se Torrent Multi Language
  • • Night at the Museum: Secret of the Tomb - Notte al museo il se Download Multi-Subs Torrent


Tagged with:

Related Movies Torrents