Home / Run All Night - Una Notte Per Sopravvivere (2015) DVDrip XviD

Run All Night - Una Notte Per Sopravvivere (2015) DVDrip XviD

date added 1 year ago   
post views 291 views   
torrent id ID: 33624

Torrent Description: Download Run All Night - Una Notte Per Sopravvivere (2015) DVDrip XviD Movie Torrent in HD Quality. Run All Night - Una Notte Per Sopravvivere (2015) DVDrip XviD DVD and PDVD. If you facing any problem Downloading Run All Night - Una Notte Per Sopravvivere (2015) DVDrip XviD Movie Torrent. Scroll Down to Get Download Link.

  • Category » Movies
  • Type » Divx/Xvid
  • Language » English
  • Total size » 1.76 GB
  • Uploaded By » robbyrs-robbyrs
Run All Night - Una Notte Per Sopravvivere (2015).DVDrip.XviD - Italian English.Ac3.5.1.Sub.ita.MIRCrew





NO FOUND ONLY ORIGINAL RELEASE

Run All Night - Una Notte Per Sopravvivere (2015)







Titolo originale Run All Night
Lingua originale inglese
Paese di produzione USA
Anno 2015
Durata 114 min
Genere azione, thriller, noir
Regia Jaume Collet-Serra
Sceneggiatura Brad Ingelsby
Produttore Roy Lee, Michael Tadross, Brooklyn Weaver
Produttore esecutivo John Powers Middleton
Casa di produzione Energy Entertainment, Vertigo Entertainment
Distribuzione (Italia) Warner Bros.
Fotografia Martin Ruhe
Montaggio Craig McKay, Dirk Westervelt
Effetti speciali Jeff Brink
Musiche Junkie XL
Scenografia Sharon Seymour
Costumi Catherine Mary Thomas
Trucco Marjorie Durand




Liam Neeson: Jimmy Conlon
Joel Kinnaman: Mike Conlon
Ed Harris: Shawn Maguire
Genesis Rodriguez: Gabriela Conlon
Boyd Holbrook: Danny Maguire
Vincent D'Onofrio: Detective Harding
Common: Andrew Price
Bruce McGill: Pat Mullen
Holt McCallany: Frank
Beau Knapp: Kenan Boyle
Nick Nolte: Eddie Conlon




Il killer professionista Jimmy Conlon, amico fedele del boss mafioso Shawn Maguire, vive ossessionato dai crimini commessi in passato e da un ispettore di polizia che da trent’anni instancabilmente gli dà la caccia. Quando suo figlio Mike, che non vede da anni, assistendo ad un omicidio entra nel mirino del boss, nel giro di una notte Jimmy sarà costretto ad una difficile scelta.........



Haunted by the ghosts of his past, former Irish mob enforcer Jimmy "The Gravedigger" Conlon has become an angry drunk, unable to connect with his son Mike, a retired professional boxer who mentors at-risk kids at the local gym. Disgusted by his father's actions, Mike refuses to involve him in the lives of his daughters, Catelyn and Lily................

















[spoiler]
General
Complete name : \Run All Night - Una Notte Per Sopravvivere (2015).ita.eng.sub.ita.MIRCrew\Run All Night - Una Notte Per Sopravvivere (2015).ita.eng.sub.ita.MIRCrew.avi
Format : AVI
Format/Info : Audio Video Interleave
File size : 1.76 GiB
Duration : 1h 49mn
Overall bit rate : 2 294 Kbps
Writing application : VirtualDubMod 1.5.4.1 (build 2178/release)
Writing library : VirtualDubMod build 2178/release

Video
ID : 0
Format : MPEG-4 Visual
Format profile : Advanced [email protected]
Format settings, BVOP : No
Format settings, QPel : No
Format settings, GMC : No warppoints
Format settings, Matrix : Custom
Codec ID : XVID
Codec ID/Hint : XviD
Duration : 1h 49mn
Bit rate : 1 517 Kbps
Width : 720 pixels
Height : 304 pixels
Display aspect ratio : 2.35:1
Frame rate : 25.000 fps
Color space : YUV
Chroma subsampling : 4:2:0
Bit depth : 8 bits
Scan type : Progressive
Compression mode : Lossy
Bits/(Pixel*Frame) : 0.277
Stream size : 1.16 GiB (66%)
Writing library : XviD 64

Audio #1
ID : 1
Format : AC-3
Format/Info : Audio Coding 3
Mode extension : CM (complete main)
Codec ID : 2000
Duration : 1h 49mn
Bit rate mode : Constant
Bit rate : 384 Kbps
Channel(s) : 6 channels
Channel positions : Front: L C R, Side: L R, LFE
Sampling rate : 48.0 KHz
Bit depth : 16 bits
Compression mode : Lossy
Stream size : 301 MiB (17%)
Alignment : Split accross interleaves
Interleave, duration : 96 ms (2.40 video frames)
Interleave, preload duration : 96 ms
Language : Italian

Audio #2
ID : 2
Format : AC-3
Format/Info : Audio Coding 3
Mode extension : CM (complete main)
Codec ID : 2000
Duration : 1h 49mn
Bit rate mode : Constant
Bit rate : 384 Kbps
Channel(s) : 6 channels
Channel positions : Front: L C R, Side: L R, LFE
Sampling rate : 48.0 KHz
Bit depth : 16 bits
Compression mode : Lossy
Stream size : 301 MiB (17%)
Alignment : Split accross interleaves
Interleave, duration : 96 ms (2.40 video frames)
Interleave, preload duration : 96 ms
Language : English



[/spoiler]



DOWNLOAD LINK

Run All Night - Una Notte Per Sopravvivere (2015) DVDrip XviD Run All Night - Una Notte Per Sopravvivere (2015) DVDrip XviD

Download Run All Night - Una Notte Per Sopravvivere (2015) DVDrip XviD Full Movie Torrent HD Quality

Torrent Download Run All Night - Una Notte Per Sopravvivere (2015) DVDrip XviD



People also Search for:

  • • Download Run All Night - Una Notte Per Sopravvivere (2015) DVDrip XviD Torrent 1080p
  • • Torrent Run All Night - Una Notte Per Sopravvivere (2015) DVDrip XviD Download DVDRip
  • • Download Run All Night - Una Notte Per Sopravvivere (2015) DVDrip XviD Torrent 720p
  • • Run All Night - Una Notte Per Sopravvivere (2015) DVDrip XviD High Resolution Torrent Result
  • • Download Run All Night - Una Notte Per Sopravvivere (2015) DVDrip XviD Bluray Torrent
  • • Xvid Torrent Run All Night - Una Notte Per Sopravvivere (2015) DVDrip XviD Download
  • • Download Run All Night - Una Notte Per Sopravvivere (2015) DVDrip XviD Torrent Full HD
  • • Torrent Run All Night - Una Notte Per Sopravvivere (2015) DVDrip XviD HDRip Download
  • • Download Run All Night - Una Notte Per Sopravvivere (2015) DVDrip XviD Torrent Multi Language
  • • Run All Night - Una Notte Per Sopravvivere (2015) DVDrip XviD Download Multi-Subs Torrent


Tagged with:

Related Movies Torrents